Warning! Use a VPN When Downloading Torrents!
Your IP Address is .   Location is
Your Internet Provider is tracking your torrent activity!  Hide your IP ADDRESS with a VPN!
We strongly recommend using Trust.Zone VPN to anonymize your torrenting. It's FREE!
Get VPN Now for FREE!
First Cams

Xvid/x264



Non-English

Site Friends
      ETTV

      Free Tutorials

      Free Courses Online

      Aiosearch


Loading...

The Terror S02E04 1080p WebRip x265 E-AC-3 5.1 Kira [SEV]


Download torrent:      
Info Hash:  9b36b1143f3837b9902e483c12a617551cdf38fc
Category:  TV  > HEVC/x265
Torrent language:  English  
Seeds | Leech:  121 | 19
Complete:   456
Health:   
Total Size:  1.42 GB
Added By:        SEV
Date Added:  10-09-2019 04:41:pm | Last Edit:  11-09-2019 08:24:am

IMDB
The Terror
The Terror Released 25 Mar 2018

Genre Adventure, Drama, History, Horror, Thriller

Director N/A

Writer David Kajganich, Max Borenstein, Alexander Woo

Actors Jared Harris, Tobias Menzies, Paul Ready, Adam Nagaitis

Plot Supernatural, semihistorical, horror anthology series, where each season is inspired by a different infamous or mysterious real life historical tragedy.

Link https://www.imdb.com/title/tt2708480/

Last Updated 19-09-2019 01:19:16
8.0

Votes 29,883

Un système d'onglets en javascript - prostylex.proxybit.pro
Description Trackers Files Comments Download


Screenshot's



Media Information
General
Unique ID                   : 96492849671516950344327898720119657082 (0x4897D8CBD3E09B332F021D89FF29927A)
Complete name               : The Terror S02E04 1080p WebRip x265 E-AC-3 5.1 Kira [SEV].mkv
Format                      : Matroska
Format version              : Version 4
File size                   : 1.42 GiB
Duration                    : 42 min 58 s
Overall bit rate            : 4 720 kb/s
Movie name                  : The Terror : S02.E04 : Infamy : The Weak Are Meat
Encoded date                : UTC 2019-09-10 10:20:54
Writing application         : mkvmerge v37.0.0 ('Leave It') 64-bit
Writing library             : libebml v1.3.9 + libmatroska v1.5.2

Video
ID                          : 1
Format                      : HEVC
Format/Info                 : High Efficiency Video Coding
Format profile              : Main [email protected]@Main
Codec ID                    : V_MPEGH/ISO/HEVC
Duration                    : 42 min 57 s
Bit rate                    : 4 078 kb/s
Width                       : 1 920 pixels
Height                      : 1 080 pixels
Display aspect ratio        : 16:9
Frame rate mode             : Constant
Frame rate                  : 23.976 (24000/1001) FPS
Color space                 : YUV
Chroma subsampling          : 4:2:0
Bit depth                   : 10 bits
Bits/(Pixel*Frame)          : 0.082
Stream size                 : 1.22 GiB (86%)
Title                       : The Terror : S02.E04 : Infamy : The Weak Are Meat
Writing library             : x265 3.1+11-de920e0a3183:[Windows][MSVC 1922][64 bit] 10bit
Encoding settings           : cpuid=1111039 / frame-threads=2 / numa-pools=4 / wpp / no-pmode / no-pme / no-psnr / no-ssim / log-level=2 / input-csp=1 / input-res=1920x1080 / interlace=0 / total-frames=61810 / level-idc=0 / high-tier=1 / uhd-bd=0 / ref=4 / no-allow-non-conformance / no-repeat-headers / annexb / no-aud / no-hrd / info / hash=0 / no-temporal-layers / open-gop / min-keyint=23 / keyint=250 / gop-lookahead=0 / bframes=8 / b-adapt=2 / b-pyramid / bframe-bias=0 / rc-lookahead=100 / lookahead-slices=4 / scenecut=40 / radl=0 / no-splice / no-intra-refresh / ctu=64 / min-cu-size=8 / no-rect / no-amp / max-tu-size=32 / tu-inter-depth=1 / tu-intra-depth=1 / limit-tu=0 / rdoq-level=2 / dynamic-rd=0.00 / no-ssim-rd / signhide / no-tskip / nr-intra=0 / nr-inter=0 / no-constrained-intra / no-strong-intra-smoothing / max-merge=3 / limit-refs=3 / limit-modes / me=3 / subme=7 / merange=92 / temporal-mvp / no-hme / weightp / no-weightb / no-analyze-src-pics / deblock=-3:-3 / sao / no-sao-non-deblock / rd=4 / no-early-skip / rskip / no-fast-intra / no-tskip-fast / no-cu-lossless / no-b-intra / no-splitrd-skip / rdpenalty=0 / psy-rd=1.50 / psy-rdoq=1.00 / no-rd-refine / no-lossless / cbqpoffs=3 / crqpoffs=3 / rc=crf / crf=20.0 / qcomp=0.60 / qpstep=4 / stats-write=0 / stats-read=0 / ipratio=1.40 / pbratio=1.30 / aq-mode=3 / aq-strength=1.10 / cutree / zone-count=0 / no-strict-cbr / qg-size=32 / no-rc-grain / qpmax=69 / qpmin=0 / no-const-vbv / sar=0 / overscan=0 / videoformat=5 / range=0 / colorprim=2 / transfer=2 / colormatrix=2 / chromaloc=0 / display-window=0cll=0,0 / min-luma=0 / max-luma=1023 / log2-max-poc-lsb=8 / vui-timing-info / vui-hrd-info / slices=1 / no-opt-qp-pps / no-opt-ref-list-length-pps / no-multi-pass-opt-rps / scenecut-bias=0.05 / no-opt-cu-delta-qp / no-aq-motion / no-hdr / no-hdr-opt / no-dhdr10-opt / no-idr-recovery-sei / analysis-reuse-level=5 / scale-factor=0 / refine-intra=0 / refine-inter=0 / refine-mv=0 / refine-ctu-distortion=0 / no-limit-sao / ctu-info=0 / no-lowpass-dct / refine-analysis-type=0 / copy-pic=1 / max-ausize-factor=1.0 / no-dynamic-refine / no-single-sei / no-hevc-aq / no-svt / no-field / qp-adaptation-range=1.00
Language                    : English
Default                     : Yes
Forced                      : No

Audio
ID                          : 2
Format                      : E-AC-3
Format/Info                 : Enhanced AC-3
Commercial name             : Dolby Digital Plus
Codec ID                    : A_EAC3
Duration                    : 42 min 58 s
Bit rate mode               : Constant
Bit rate                    : 640 kb/s
Channel(s)                  : 6 channels
Channel layout              : L R C LFE Ls Rs
Sampling rate               : 48.0 kHz
Frame rate                  : 31.250 FPS (1536 SPF)
Compression mode            : Lossy
Stream size                 : 197 MiB (14%)
Title                       : English DD+_5.1
Language                    : English
Service kind                : Complete Main
Default                     : Yes
Forced                      : No

Text
ID                          : 3
Format                      : UTF-8
Codec ID                    : S_TEXT/UTF8
Codec ID/Info               : UTF-8 Plain Text
Duration                    : 41 min 19 s
Bit rate                    : 39 b/s
Count of elements           : 452
Stream size                 : 12.0 KiB (0%)
Title                       : English SRT
Language                    : English
Default                     : Yes
Forced                      : No


Source Information
The.Terror.S02E04.Infamy.The.Weak.Are.Meat.1080p.AMZN.WEB-DL.DD+5.1.H.264-AJP69 (2.76 GB)


We have no issue with individuals posting or re-uploading our torrents on a platform we aren't on. However, if this is something you'd like to do, please do so in a 'as-is' format. We ask that you do not create a new torrent, include all descriptions you see above including the SEV logo, tags, notes and screenshots. If you'd like to become a permanent poster on a website we don't post to, feel free to get in contact with a Sublime Encoded Video member.

We are recruiting/training new members for SEV & seedbox providers as well as people to help out with subtitles.
As you already know, we deliver quality, so you know the standard.
If you're interested, feel free to contact any of the team members.





Similar Torrents
Type Name Size Added S L
x264 The.Terror.S01E03.HDTV.x264-SVA[ettv]
234.98 MB 2018-04-03 15:37:13 8503 2351
x264 The.Terror.S01E06.WEB.H264-DEFLATE[ettv]
246.28 MB 2018-04-10 12:23:25 4191 681
x264 The.Terror.S01E01.HDTV.x264-SVA[ettv]
247.40 MB 2018-04-03 16:00:21 3312 787
HD The.Terror.S01E02.PROPER.720p.HDTV.x264-AVS[ettv]
869.11 MB 2018-04-03 16:01:08 3280 414
HD The.Terror.S01E03.720p.HDTV.x264-AVS[ettv]
927.49 MB 2018-04-03 15:37:56 2803 1232
x264 The.Terror.S01E08.WEB.H264-DEFLATE[ettv]
268.48 MB 2018-04-10 12:25:26 2628 179
HD The.Terror.S01E01.720p.HDTV.x264-AVS[ettv]
886.06 MB 2018-04-03 16:00:34 2565 327
x264 The.Terror.S01E04.WEB.H264-DEFLATE[ettv]
198.93 MB 2018-04-03 16:01:19 2391 1066
x264 The.Terror.S01E07.WEB.H264-DEFLATE[ettv]
261.01 MB 2018-04-10 12:24:27 2162 120
x264 The.Terror.S02E01.WEB.h264-TBS[ettv]
557.13 MB 2019-08-11 04:23:48 2005 277

Loading...


Trackers:
http://tracker3.itzmx.com:6961/announce

This Torrent also has backup trackers
URLSeedersLeechersCompleted
http://tracker3.itzmx.com:6961/announce000
http://open.acgnxtracker.com:80/announce000
http://explodie.org:6969/announce000

The Terror S02E04 1080p WebRip x265 E-AC-3 5.1 Kira [SEV]
Files
The Terror S02E04 1080p WebRip x265 E-AC-3 5.1 Kira [SEV].mkv (1.42 GB)


Comments:
No comments still posted
Powered by TT | Page Generated In 0.719900 secs.
| RSS Feed | Feed Info