Warning! Use a VPN When Downloading Torrents!
Your IP Address is .   Location is
Your Internet Provider is tracking your torrent activity!  Hide your IP ADDRESS with a VPN!
We strongly recommend using Trust.Zone VPN to anonymize your torrenting. It's FREE!
Get VPN Now for FREE!
First Cams

Xvid/x264



Non-English

Site Friends
      ETTV

      Free Tutorials

      Free Courses Online

      Aiosearch


Loading...

Skyscraper(2018)Mp-4 X264 AAC[DSD]


Download torrent:      
Info Hash:  83398b8e531a73669c5cbc4acee6ae6d81c3ea5e
Category:  Movies  > HD
Torrent language:  English  
Seeds | Leech:  32 | 5
Complete:   3,937
Health:   
Total Size:  1.60 GB
Added By:        dascubadude
Date Added:  10-09-2019 10:27:pm | Last Edit:  11-09-2019 02:18:pm

IMDB
Skyscraper
Skyscraper Released 13 Jul 2018

Genre Action, Adventure, Thriller

Director Rawson Marshall Thurber

Writer Rawson Marshall Thurber

Actors Dwayne Johnson, Neve Campbell, Chin Han, Roland Møller

Plot A security expert must infiltrate a burning skyscraper, 225 stories above ground, when his family is trapped inside by criminals.

Link http://www.imdb.com/title/tt5758778

Last Updated 18-09-2019 17:29:37
5.8

Votes 86,037

Un système d'onglets en javascript - prostylex.proxybit.pro
Description Trackers Files Comments Download

Seedboxed!

Trailer
IMDb Info for this Film

General
Complete name                            : SKYSCRAPER.mp4
Format                                   : MPEG-4
Format profile                           : Base Media / Version 2
Codec ID                                 : mp42 (mp42/isom/avc1)
File size                                : 1.60 GiB
Duration                                 : 1 h 42 min
Overall bit rate mode                    : Variable
Overall bit rate                         : 2 233 kb/s
Movie name                               : SKYSCRAPER.theatrical
Album                                    : SKYSCRAPER
Encoded date                             : UTC 2019-02-01 23:39:12
Tagged date                              : UTC 2019-02-02 00:50:13
Writing application                      : DVDFab 11.0.1.5
Cover                                    : Yes

Video
ID                                       : 1
Format                                   : AVC
Format/Info                              : Advanced Video Codec
Format profile                           : [email protected]
Format settings                          : CABAC / 2 Ref Frames
Format settings, CABAC                   : Yes
Format settings, RefFrames               : 2 frames
Format settings, GOP                     : M=1, N=24
Codec ID                                 : avc1
Codec ID/Info                            : Advanced Video Coding
Duration                                 : 1 h 42 min
Bit rate mode                            : Variable
Bit rate                                 : 1 773 kb/s
Maximum bit rate                         : 2 763 kb/s
Width                                    : 1 920 pixels
Height                                   : 800 pixels
Display aspect ratio                     : 2.40:1
Frame rate mode                          : Constant
Frame rate                               : 23.976 (24000/1001) FPS
Color space                              : YUV
Chroma subsampling                       : 4:2:0
Bit depth                                : 8 bits
Scan type                                : Progressive
Bits/(Pixel*Frame)                       : 0.048
Stream size                              : 1.27 GiB (79%)
Encoded date                             : UTC 2019-02-01 23:39:12
Tagged date                              : UTC 2019-02-02 00:50:13
Color primaries                          : BT.709
Transfer characteristics                 : BT.709
Matrix coefficients                      : BT.709
Menus                                    : 4

Audio
ID                                       : 2
Format                                   : AAC
Format/Info                              : Advanced Audio Codec
Format profile                           : LC
Codec ID                                 : mp4a-40-2
Duration                                 : 1 h 42 min
Bit rate mode                            : Variable
Bit rate                                 : 453 kb/s
Channel(s)                               : 6 channels
Channel positions                        : Front: L C R, Side: L R, LFE
Sampling rate                            : 48.0 kHz
Frame rate                               : 46.875 FPS (1024 SPF)
Compression mode                         : Lossy
Stream size                              : 328 MiB (20%)
Title                                    : English (aac 5.1)
Language                                 : English
Default                                  : Yes
Alternate group                          : 1
Encoded date                             : UTC 2019-02-01 23:39:12
Tagged date                              : UTC 2019-02-02 00:50:13

Text
ID                                       : 3
Format                                   : VobSub
Codec ID                                 : mp4s-E0
Codec ID/Info                            : The same subtitle format used on DVDs
Duration                                 : 1 h 32 min
Bit rate mode                            : Variable
Bit rate                                 : 9 916 b/s
Maximum bit rate                         : 4 249 Mb/s
Stream size                              : 6.54 MiB (0%)
Language                                 : English
Default                                  : Yes
Forced                                   : No
Alternate group                          : 2
Encoded date                             : UTC 2019-02-01 23:39:12
Tagged date                              : UTC 2019-02-02 00:44:45


Similar Torrents
Type Name Size Added S L
h.264/x264 Skyscraper.2018.720p.HC.HDRip.X264.AC3-EVO[EtHD]
2.53 GB 2018-08-10 17:28:22 26140 11171
h.264/x264 Skyscraper.2018.HC.HDRip.XviD.AC3-EVO[EtMovies]
1.36 GB 2018-08-10 17:14:06 19226 5099
Cam/TS Skyscraper 2018.NEW.HDCAM.XViD.AC3-ETRG
1.16 GB 2018-07-15 09:19:39 10931 5643
HD Skyscraper.2018.1080p.WEB-DL.H264.AC3-EVO[EtHD]
3.40 GB 2018-09-05 22:37:36 6818 2749
Divx/Xvid Skyscraper.2018.HDRip.XviD.AC3-EVO
1.39 GB 2018-09-05 22:40:42 6424 2453
Dubs/Dual Audio Skyscraper 2018 720p HC HDRip x264 Dual Audio [Hin...
916.04 MB 2018-08-11 14:09:24 5385 18197
HD Video HD XRW-643 180cm ultra tall tattoo beauty of skys...
1.81 GB 2019-02-11 10:56:43 3197 1934
HD Skyscraper 2018 720p HC HDRip x264 [MW]
892.46 MB 2018-08-11 12:42:57 2526 6959
Dubs/Dual Audio Skyscraper 2018 1080p HC HDRip x264 Dual Audio [Hi...
2.06 GB 2018-08-11 14:08:46 2194 2019
Dubs/Dual Audio Skyscraper 2018 720p WEBRip x264 Dual Audio [Hindi...
1.04 GB 2018-09-06 10:30:00 2145 1513

Loading...


Trackers:
udp://tracker.openbittorrent.com:80/announce

Skyscraper(2018)Mp-4 X264 AAC[DSD]
Files
Read me.rtf (3.72 MB)
screenshot289.jpg (79.41 kB)
screenshot293.jpg (45.03 kB)
screenshot294.jpg (36.63 kB)
screenshot295.jpg (37.67 kB)
SKYSCRAPER.theatrical.mp4 (1.60 GB)


Comments:
No comments still posted
Powered by TT | Page Generated In 0.181522 secs.
| RSS Feed | Feed Info