Warning! Use a VPN When Downloading Torrents!
Your IP Address is .   Location is
Your Internet Provider is tracking your torrent activity!  Hide your IP ADDRESS with a VPN!
We strongly recommend using ExpressVPN to anonymize your torrenting. 30 Day Money Back Guarantee!
Try it Now!
First Cams

Xvid/x264



Non-English

Site Friends
      ETTV

      Torrentz2

      Free Tutorials

      Free Courses Online

      Nulled Premium

      Aiosearch



National Treasure 2 Book of Secrets (2007) 1080p BluRay Dual Audio [Hindi+English]SeedUp


Download torrent:      
Info Hash:  e4bc6c05e132b5144dd8ad69148509e6255355b1
Category:  Movies  > Dubs/Dual Audio
Torrent language:  Hindi  
Seeds | Leech:  788 | 1,122
Complete:   1,288
Health:   
Total Size:  1.94 GB
Added By:        SeedUp
Date Added:  18-09-2019 09:11:am | Last Edit:  18-09-2019 08:50:pm

Un système d'onglets en javascript - prostylex.proxybit.pro
Description Trackers Files Comments Download


Complete name                            : National Treasure 2 Book of Secrets (2007) 1080p BluRay Dual Audio [Hindi+English]SeedUp.mkv
Format                                   : Matroska
Format version                           : Version 4
File size                                : 1.94 GiB
Duration                                 : 2 h 4 min
Overall bit rate                         : 2 236 kb/s
Movie name                               : National Treasure 2 Book of Secrets (2007) 1080p BluRay Dual Audio [Hindi+English]SeedUp
Encoded date                             : UTC 2019-09-18 04:32:43

Video
ID                                       : 1
Format                                   : AVC
Format/Info                              : Advanced Video Codec
Duration                                 : 2 h 4 min
Bit rate                                 : 1 859 kb/s
Width                                    : 1 920 pixels
Height                                   : 800 pixels
Display aspect ratio                     : 2.40:1
Frame rate mode                          : Constant
Frame rate                               : 23.976 (24000/1001) FPS
Color space                              : YUV
Chroma subsampling                       : 4:2:0
Bit depth                                : 8 bits
Scan type                                : Progressive
Bits/(Pixel*Frame)                       : 0.050
Stream size                              : 1.62 GiB (83%)
Title                                    : SeedUp

Audio #1
ID                                       : 2
Format                                   : AAC LC
Codec ID                                 : A_AAC-2
Duration                                 : 2 h 4 min
Bit rate                                 : 150 kb/s
Channel(s)                               : 2 channels
Channel layout                           : L R
Sampling rate                            : 44.1 kHz
Frame rate                               : 43.066 FPS (1024 SPF)
Compression mode                         : Lossy
Delay relative to video                  : -106 ms
Stream size                              : 134 MiB (7%)
Title                                    : SeedUp
Language                                 : Hindi

Audio #2
ID                                       : 3
Format                                   : AC-3
Format/Info                              : Audio Coding 3
Commercial name                          : Dolby Digital
Codec ID                                 : A_AC3
Duration                                 : 2 h 4 min
Bit rate mode                            : Constant
Bit rate                                 : 224 kb/s
Channel(s)                               : 2 channels
Channel layout                           : L R
Sampling rate                            : 44.1 kHz
Frame rate                               : 28.711 FPS (1536 SPF)
Bit depth                                : 16 bits
Compression mode                         : Lossy
Delay relative to video                  : -106 ms
Stream size                              : 200 MiB (10%)
Title                                    : SeedUp
Language                                 : English

Screenshots












Similar Torrents
Type Name Size Added S L
HD Men.in.Black.International.2019.1080p.WEB-DL.DD5.1...
4.33 GB 2019-08-20 09:54:30 9702 3128
HD Video HD SSNI-493 BDSM ban full BDSM being forcibly fuc...
5.11 GB 2019-06-14 17:15:12 9571 13157
Video DTT-022 29 years older husband for AV appearance ...
1.19 GB 2019-05-04 01:02:56 8272 4628
Cam/TS Men in Black International (2019) 720p Cam Rip- AV...
976.83 MB 2019-06-14 08:25:04 6980 6912
Video Artificial intelligent AI aspects the goddess unde...
470.53 MB 2019-05-06 06:12:25 5470 4459
HD Video HD JUY-864 beautiful and intelligent, not the Nat...
3.52 GB 2019-05-31 20:21:11 4630 6719
Video Chamber parkings contact untill Keita Internationa...
572.00 MB 2019-06-02 18:54:59 4446 4602
Video 200GANA-2090 digital flirting,first take. 1348 hig...
851.19 MB 2019-06-05 19:44:49 4315 6543
Video Meisei convertion partners, building 101 national...
277.34 MB 2019-05-06 06:14:51 4290 2288
HD 18+ Pornocracy The New Sex Multinationals 2018 UNC...
752.40 MB 2018-07-16 09:24:27 4246 2902



Trackers:
udp://tracker.openbittorrent.com:80/announce

This Torrent also has backup trackers
URLSeedersLeechersCompleted
https://tracker.vectahosting.eu:2053/announce000
https://tracker.nanoha.org:443/announce000

National Treasure 2 Book of Secrets (2007) 1080p BluRay Dual Audio [Hindi+English]SeedUp
Files
National Treasure 2 Book of Secrets (2007) 1080p BluRay Dual Audio [Hindi+English]SeedUp.mkv (1.94 GB)


Comments:
No comments still posted
Powered by TT | Page Generated In 0.205664 secs.
| RSS Feed | Feed Info